Play 3d SBS mkv files on Bluray player using Us HDD

TattyPlane

Standard Member
I recently triede to play my 3d mkv on my blueray player usin usb but it gives me a message that the file is not supported...i had played lots of other mkv files successfully before...so can some ne help me ... oh and this is the mkv info...


General
Unique ID : 204584130312354646414906896760996683206 (0x99E97863B681F41793B8D4FCF4A0DDC6)
Complete name : E:\1\d3d.mkv
Format : Matroska
File size : 8.68 GiB
Duration : 1h 34mn
Overall bit rate : 13.1 Mbps
Movie name : DESPICABLE_ME
Encoded date : UTC 2011-01-20 22:36:01
Writing application : DVDFab
Writing library : libebml v0.7.8 + libmatroska v0.8.1

Video
ID : 1
Format : AVC
Format/Info : Advanced Video Codec
Format profile : [email protected]
Format settings, CABAC : Yes
Format settings, ReFrames : 2 frames
Codec ID : V_MPEG4/ISO/AVC
Duration : 1h 34mn
Bit rate : 11.3 Mbps
Width : 1 920 pixels
Height : 1 080 pixels
Display aspect ratio : 16:9
Frame rate : 23.976 fps
Color space : YUV
Chroma subsampling : 4:2:0
Bit depth : 8 bits
Scan type : Progressive
Bits/(Pixel*Frame) : 0.228
Stream size : 7.51 GiB (86%)
Writing library : x264 core
Color primaries : BT.709-5, BT.1361, IEC 61966-2-4, SMPTE RP177
Transfer characteristics : BT.709-5, BT.1361
Matrix coefficients : BT.709-5, BT.1361, IEC 61966-2-4 709, SMPTE RP177

Audio
ID : 2
Format : DTS
Format/Info : Digital Theater Systems
Codec ID : A_DTS
Duration : 1h 34mn
Bit rate mode : Constant
Bit rate : 1 510 Kbps
Channel(s) : 6 channels
Channel positions : Front: L C R, Side: L R, LFE
Sampling rate : 48.0 KHz
Bit depth : 24 bits
Compression mode : Lossy
Stream size : 1 023 MiB (12%)
 

probedb

Ex Member
Telling us which player would help, plus it'd be better in the Blu-Ray player section.
 

Garrett

Moderator
Moved;)
 

The latest video from AVForums

Sony A84L/A80L BRAVIA XR OLED TV Review - COMPARED to LG C3, Samsung QD-OLED & LG G3
Subscribe to our YouTube channel
Support AVForums with Patreon

Back
Top Bottom