Django: Limited Edition 4K UHD

RedDevil85

Distinguished Member
Arrow Video announcement.
US/CA only release so will have to import.

Release date: 25/05/2021

Django_4K (US_CA only).jpg

The film is presented here in its 4K UHD Blu-ray debut, with a wealth of extras. Also included is the bonus feature Texas, Adios on Blu-ray, which also stars Franco Nero, and was released as a sequel to Django in some countries.

2-DISC 4K UHD BLU-RAY LIMITED EDITION CONTENTS:

– 4K (2160p) UHD Blu-ray presentation of Django, in Dolby Vision (HDR10 compatible)
– High Definition Blu-ray (1080p) presentation of Texas, Adios
– Uncompressed Mono 1.0 PCM audio
– Original English and Italians soundtracks
– English subtitles for the Italian soundtracks
– Optional English subtitles for the deaf and hard of hearing for the English soundtracks
– Six double-sided collector’s postcards
– Double-sided fold-out poster
– 60-page perfect-bound book featuring writing by Howard Hughes and Roberto Curti, and original reviews
– Reversible sleeve featuring original and newly commissioned artwork by Sean Phillips

DISC 1 – DJANGO [4K UHD BLU-RAY]

– Audio commentary by film critic, historian and theorist Stephen Prince
– Django Never Dies, an interview with star Franco Nero
– Cannibal of the Wild West, an interview with assistant director Ruggero Deodato
– Sergio, My Husband, an interview with Sergio Corbucci’s wife Nori Corbucci
– That’s My Life: Part 1, an archival interview with co-writer Franco Rossetti
– A Rock ‘n’ Roll Scriptwriter, an archival interview with co-writer Piero Vivarelli
– A Punch in the Face, an archival interview with stuntman and actor Gilberto Galimberti
– Discovering Django, an appreciation by spaghetti westerns scholar Austin Fisher
– An Introduction to Django by Alex Cox, an archival featurette with the acclaimed director
– Gallery of original promotional images from the Mike Siegel archive
– Original trailers

DISC 2 – TEXAS ADIOS [BLU-RAY]

– Audio commentary by spaghetti western experts C. Courtney Joyner and Henry C. Parke
– The Sheriff is in Town, an interview with star Franco Nero
– Jump into the West, an interview with co-star Alberto Dell’Acqua
– That’s My Life: Part 2, an archival interview with co-writer Franco Rossetti
– Hello Texas!, an appreciation by spaghetti western scholar Austin Fisher
– Gallery of original promotional images from the Mike Siegel archive
– Original trailers
 
Last edited:

featherhall

Distinguished Member
Great movie. If they release a tat free disc I’d import
 

Jim Di Griz

Distinguished Member
Cant believe this is getting a 4K release over other Spaghetti Westerns that are FAR better but hey ho..
 

lgans316

Distinguished Member
Received today. The video bit rate is the highest I have seen on a 4K disc.

Code:
General
File size                                : 63.4 GiB
Duration                                 : 1 h 31 min
Overall bit rate mode                    : Variable
Overall bit rate                         : 98.9 Mb/s
Movie name                               : DJANGO - 4K UHD

Video
ID                                       : 1
ID in the original source medium         : 4113 (0x1011)
Format                                   : HEVC
Format/Info                              : High Efficiency Video Coding
Format profile                           : Main [email protected]@High
HDR format                               : Dolby Vision, Version 1.0, dvhe.07.06, BL+EL+RPU, Blu-ray compatible / SMPTE ST 2086, HDR10 compatible
Codec ID                                 : V_MPEGH/ISO/HEVC
Duration                                 : 1 h 31 min
Bit rate                                 : 95.0 Mb/s
Width                                    : 3 840 pixels
Height                                   : 2 160 pixels
Display aspect ratio                     : 16:9
Frame rate mode                          : Constant
Frame rate                               : 23.976 (24000/1001) FPS
Color space                              : YUV
Chroma subsampling                       : 4:2:0 (Type 2)
Bit depth                                : 10 bits
Bits/(Pixel*Frame)                       : 0.478
Stream size                              : 60.9 GiB (96%)
Language                                 : English
Default                                  : No
Forced                                   : No
Color range                              : Limited
Color primaries                          : BT.2020
Transfer characteristics                 : PQ
Matrix coefficients                      : BT.2020 non-constant
Mastering display color primaries        : BT.2020
Mastering display luminance              : min: 0.0001 cd/m2, max: 1000 cd/m2
Original source medium                   : Blu-ray

Audio #1
ID                                       : 2
ID in the original source medium         : 4352 (0x1100)
Format                                   : DTS XLL
Format/Info                              : Digital Theater Systems
Commercial name                          : DTS-HD Master Audio
Codec ID                                 : A_DTS
Duration                                 : 1 h 31 min
Bit rate mode                            : Variable
Bit rate                                 : 1 062 kb/s
Channel(s)                               : 1 channel
Channel layout                           : C
Sampling rate                            : 48.0 kHz
Frame rate                               : 93.750 FPS (512 SPF)
Bit depth                                : 24 bits
Compression mode                         : Lossless
Stream size                              : 696 MiB (1%)
Title                                    : Mono
Language                                 : English
Default                                  : Yes
Forced                                   : No
Original source medium                   : Blu-ray

Audio #2
ID                                       : 3
ID in the original source medium         : 4352 (0x1100)
Format                                   : DTS
Format/Info                              : Digital Theater Systems
Codec ID                                 : A_DTS
Duration                                 : 1 h 31 min
Bit rate mode                            : Constant
Bit rate                                 : 768 kb/s
Channel(s)                               : 1 channel
Channel layout                           : C
Sampling rate                            : 48.0 kHz
Frame rate                               : 93.750 FPS (512 SPF)
Bit depth                                : 24 bits
Compression mode                         : Lossy
Stream size                              : 504 MiB (1%)
Title                                    : Mono
Language                                 : English
Default                                  : No
Forced                                   : No
Original source medium                   : Blu-ray

Audio #3
ID                                       : 4
ID in the original source medium         : 4353 (0x1101)
Format                                   : DTS XLL
Format/Info                              : Digital Theater Systems
Commercial name                          : DTS-HD Master Audio
Codec ID                                 : A_DTS
Duration                                 : 1 h 31 min
Bit rate mode                            : Variable
Bit rate                                 : 1 070 kb/s
Channel(s)                               : 1 channel
Channel layout                           : C
Sampling rate                            : 48.0 kHz
Frame rate                               : 93.750 FPS (512 SPF)
Bit depth                                : 24 bits
Compression mode                         : Lossless
Stream size                              : 702 MiB (1%)
Title                                    : Mono
Language                                 : Italian
Default                                  : No
Forced                                   : No
Original source medium                   : Blu-ray

Audio #4
ID                                       : 5
ID in the original source medium         : 4353 (0x1101)
Format                                   : DTS
Format/Info                              : Digital Theater Systems
Codec ID                                 : A_DTS
Duration                                 : 1 h 31 min
Bit rate mode                            : Constant
Bit rate                                 : 768 kb/s
Channel(s)                               : 1 channel
Channel layout                           : C
Sampling rate                            : 48.0 kHz
Frame rate                               : 93.750 FPS (512 SPF)
Bit depth                                : 24 bits
Compression mode                         : Lossy
Stream size                              : 504 MiB (1%)
Title                                    : Mono
Language                                 : Italian
Default                                  : No
Forced                                   : No
Original source medium                   : Blu-ray

Audio #5
ID                                       : 6
ID in the original source medium         : 4354 (0x1102)
Format                                   : AC-3
Format/Info                              : Audio Coding 3
Commercial name                          : Dolby Digital
Codec ID                                 : A_AC3
Duration                                 : 1 h 31 min
Bit rate mode                            : Constant
Bit rate                                 : 192 kb/s
Channel(s)                               : 2 channels
Channel layout                           : L R
Sampling rate                            : 48.0 kHz
Frame rate                               : 31.250 FPS (1536 SPF)
Compression mode                         : Lossy
Stream size                              : 126 MiB (0%)
Title                                    : Stereo
Language                                 : English
Service kind                             : Complete Main
Default                                  : No
Forced                                   : No
Original source medium                   : Blu-ray

Text #1
ID                                       : 7
ID in the original source medium         : 4768 (0x12A0)
Format                                   : PGS
Codec ID                                 : S_HDMV/PGS
Codec ID/Info                            : Picture based subtitle format used on BDs/HD-DVDs
Duration                                 : 1 h 31 min
Bit rate                                 : 23.7 kb/s
Count of elements                        : 1478
Stream size                              : 15.5 MiB (0%)
Language                                 : English
Default                                  : No
Forced                                   : No
Original source medium                   : Blu-ray

Text #2
ID                                       : 9
ID in the original source medium         : 4769 (0x12A1)
Format                                   : PGS
Codec ID                                 : S_HDMV/PGS
Codec ID/Info                            : Picture based subtitle format used on BDs/HD-DVDs
Duration                                 : 1 h 30 min
Bit rate                                 : 16.5 kb/s
Count of elements                        : 978
Stream size                              : 10.7 MiB (0%)
Language                                 : English
Default                                  : No
Forced                                   : No
Original source medium                   : Blu-ray

Menu
00:00:00.000                             : en:Chapter 01
00:08:26.130                             : en:Chapter 02
00:14:09.223                             : en:Chapter 03
00:22:36.271                             : en:Chapter 04
00:29:18.214                             : en:Chapter 05
00:38:14.166                             : en:Chapter 06
00:49:53.573                             : en:Chapter 07
00:55:10.807                             : en:Chapter 08
01:02:40.631                             : en:Chapter 09
01:09:09.770                             : en:Chapter 10
01:17:54.628                             : en:Chapter 11
01:23:47.188                             : en:Chapter 12
 

The latest video from AVForums

Podcast: Panasonic JZ2000 Final Thoughts - TV Calibration: Should you? And More...
Subscribe to our YouTube channel
Support AVForums with Patreon

Top Bottom